<?xml version="1.0" standalone="no"?>
<!DOCTYPE svg PUBLIC "-//W3C//DTD SVG 1.1//EN" "http://www.w3.org/Graphics/SVG/1.1/DTD/svg11.dtd" >
<svg xmlns="http://www.w3.org/2000/svg">
<metadata>Generated by IcoMoon</metadata>
<defs>
<font id="mazzola-2018" horiz-adv-x="1024">
<font-face units-per-em="1024" ascent="870.4" descent="-153.6" />
<missing-glyph horiz-adv-x="1024" />
<glyph unicode="&#x20;" horiz-adv-x="0" d="" />
<glyph unicode="&#x2f;" glyph-name="up" d="M492.544 683.776l-484.352-491.52c-10.24-12.288-10.24-31.744 0-41.984 12.288-12.288 29.696-12.288 41.984 0l461.824 470.016 461.824-470.016c12.288-12.288 30.72-12.288 41.984 0 6.144 4.096 8.192 12.288 8.192 19.456 0 8.192-2.048 14.336-8.192 22.528l-483.328 491.52c-10.24 10.24-30.72 10.24-39.936 0z" />
<glyph unicode="&#x31;" glyph-name="pdf" d="M900.096 648.448l-205.824 205.824c-6.144 6.144-14.336 10.24-24.576 10.24h-512c-19.456 0-44.032-16.384-44.032-52.224v-935.936c0-16.384 16.384-30.72 34.816-34.816 0 0 0 0 2.048-2.048 1.024 0 5.12 0 7.168 0h708.608c2.048 0 6.144 0 8.192 0 2.048 2.048 2.048 2.048 2.048 2.048 17.408 4.096 33.792 18.432 33.792 34.816v741.376c0 12.288-2.048 22.528-10.24 30.72zM845.824 652.544h-147.456v149.504zM157.696-123.648c-2.048 0-2.048 0-4.096 0-2.048 2.048-3.072 4.096-3.072 7.168v257.024h723.968v-257.024c0-3.072-2.048-5.12-4.096-7.168-2.048 0-2.048 0-4.096 0zM150.528 176.384v635.904c0 4.096 0 15.36 7.168 15.36h505.856c-1.024-2.048-1.024-4.096-1.024-5.12v-206.848h205.824c2.048 0 4.096 2.048 6.144 2.048 0 0 0 0 0 0v-441.344zM390.144 73.984c-6.144 4.096-14.336 8.192-20.48 10.24-7.168 4.096-15.36 4.096-23.552 4.096h-50.176v-178.176h27.648v63.488h22.528c10.24 0 18.432 2.048 25.6 4.096 8.192 4.096 14.336 8.192 20.48 12.288 4.096 6.144 10.24 12.288 12.288 18.432 3.072 7.168 3.072 15.36 3.072 25.6 0 8.192 0 16.384-3.072 21.504-4.096 8.192-8.192 14.336-14.336 18.432zM377.856 15.616c-2.048-5.12-4.096-9.216-6.144-11.264-4.096-2.048-6.144-4.096-9.216-6.144-4.096-2.048-8.192-2.048-10.24-2.048h-28.672v69.632h22.528c8.192 0 14.336 0 18.432-2.048 3.072-4.096 7.168-6.144 9.216-9.216 4.096-4.096 4.096-6.144 6.144-10.24 0-4.096 0-8.192 0-10.24 0-8.192 0-14.336-2.048-18.432zM564.224 61.696c-8.192 8.192-16.384 14.336-28.672 20.48-11.264 4.096-23.552 6.144-39.936 6.144h-53.248v-178.176h67.584c2.048 0 6.144 0 10.24 2.048 6.144 0 10.24 2.048 15.36 4.096 6.144 2.048 12.288 4.096 18.432 7.168 6.144 4.096 10.24 10.24 16.384 16.384 4.096 8.192 8.192 16.384 11.264 28.672 2.048 9.216 4.096 21.504 4.096 35.84 0 11.264-2.048 21.504-6.144 31.744-1.024 10.24-7.168 18.432-15.36 25.6zM543.744-49.92c-9.216-12.288-23.552-18.432-44.032-18.432h-27.648v134.144h16.384c13.312 0 25.6-2.048 33.792-4.096 10.24-4.096 15.36-9.216 21.504-15.36 4.096-4.096 8.192-12.288 10.24-18.432 2.048-8.192 2.048-15.36 2.048-21.504 0-24.576-4.096-41.984-12.288-56.32zM627.712-89.856h30.72v79.872h73.728v20.48h-73.728v55.296h81.92v22.528h-112.64zM677.888 457.984c-15.36 0-35.84-2.048-57.344-6.144-34.816 33.792-66.56 83.968-90.112 134.144 21.504 100.352 11.264 113.664 5.12 119.808-5.12 6.144-13.312 18.432-21.504 18.432-4.096 0-14.336-2.048-18.432-2.048-9.216-4.096-15.36-12.288-19.456-22.528-12.288-29.696 4.096-79.872 21.504-117.76-15.36-59.392-39.936-130.048-65.536-189.44-67.584-30.72-104.448-60.416-106.496-88.064-2.048-12.288 0-26.624 20.48-39.936 4.096-4.096 10.24-6.144 16.384-6.144 15.36 0 31.744 11.264 49.152 37.888 12.288 17.408 26.624 41.984 41.984 73.728 46.080 20.48 106.496 39.936 156.672 50.176 27.648-25.6 52.224-39.936 73.728-39.936 16.384 0 27.648 8.192 37.888 19.456 10.24 16.384 14.336 28.672 8.192 38.912-8.192 13.312-23.552 19.456-52.224 19.456zM362.496 288c-8.192 6.144-8.192 10.24-8.192 12.288 2.048 10.24 17.408 27.648 55.296 48.128-29.696-52.224-44.032-60.416-47.104-60.416zM507.904 692.48c0 0 18.432-18.432 2.048-56.32-25.6 25.6-4.096 56.32-2.048 56.32zM470.016 409.856c18.432 41.984 35.84 90.112 48.128 134.144 19.456-35.84 44.032-71.68 67.584-98.304-37.888-9.216-77.824-21.504-115.712-35.84zM698.368 418.048c-4.096-8.192-16.384-8.192-20.48-8.192-10.24 0-14.336 6.144-27.648 16.384 12.288 2.048 23.552 2.048 31.744 2.048 16.384 0 18.432-2.048 20.48-2.048 0-2.048 0-4.096-4.096-8.192z" />
<glyph unicode="&#x32;" glyph-name="printer" d="M986.112 157.952v358.4c0 48.128-37.888 86.016-86.016 86.016h-94.208v181.248c0 32.768-25.6 58.368-57.344 58.368h-472.064c-32.768 0-58.368-25.6-58.368-58.368v-181.248h-94.208c-48.128 0-86.016-37.888-86.016-86.016v-358.4c0-48.128 37.888-86.016 86.016-86.016h94.208v-151.552c0-32.768 25.6-58.368 58.368-58.368h472.064c31.744 0 57.344 25.6 57.344 58.368v151.552h94.208c48.128 0 86.016 37.888 86.016 86.016zM266.24 783.616c0 6.144 4.096 8.192 10.24 8.192h472.064c5.12 0 9.216-2.048 9.216-8.192v-181.248h-491.52zM757.76-79.616c0-6.144-4.096-10.24-9.216-10.24h-472.064c-6.144 0-10.24 4.096-10.24 10.24v391.168h491.52v-391.168zM782.336 361.728h-540.672c-13.312 0-23.552-11.264-23.552-25.6v-216.064h-94.208c-19.456 0-35.84 18.432-35.84 37.888v358.4c0 19.456 16.384 37.888 35.84 37.888h776.192c19.456 0 35.84-18.432 35.84-37.888v-358.4c0-19.456-16.384-37.888-35.84-37.888h-94.208v216.064c0 14.336-10.24 25.6-23.552 25.6zM165.888 476.416c-6.144-6.144-8.192-12.288-8.192-18.432s2.048-14.336 8.192-18.432c4.096-3.072 10.24-5.12 16.384-5.12s13.312 2.048 17.408 5.12c4.096 4.096 8.192 12.288 8.192 18.432s-4.096 12.288-8.192 18.432c-9.216 7.168-25.6 7.168-33.792 0zM652.288 136.448h-278.528c-13.312 0-25.6-10.24-25.6-24.576 0-13.312 12.288-25.6 25.6-25.6h276.48c13.312 0 25.6 12.288 25.6 25.6 0 14.336-12.288 24.576-23.552 24.576zM652.288 25.856h-278.528c-13.312 0-25.6-12.288-25.6-25.6 0-14.336 12.288-24.576 25.6-24.576h276.48c13.312 0 25.6 10.24 25.6 24.576 0 13.312-12.288 25.6-23.552 25.6zM652.288 248.064h-278.528c-13.312 0-25.6-12.288-25.6-25.6 0-12.288 12.288-24.576 25.6-24.576h276.48c13.312 0 25.6 12.288 25.6 24.576 0 13.312-12.288 25.6-23.552 25.6z" />
<glyph unicode="&#x3c;" glyph-name="left-convertito" d="M738.304 864.512l48.128-48.128-454.656-463.872 454.656-464.896-48.128-48.128-500.736 513.024z" />
<glyph unicode="&#x3e;" glyph-name="right-convertito" d="M285.696 864.512l-48.128-48.128 454.656-463.872-454.656-464.896 48.128-48.128 500.736 513.024z" />
<glyph unicode="&#x41;" glyph-name="accessories-convertito" d="M400.384 303.872l-66.56-69.632c-11.264-12.288-17.408-28.672-17.408-46.080 0-18.432 6.144-33.792 17.408-48.128l14.336-12.288-8.192-8.192c-23.552-25.6-61.44-25.6-83.968 0l-65.536 70.656c-44.032 46.080-114.688 46.080-158.72 0-41.984-48.128-41.984-121.856 0-167.936l35.84 37.888c-21.504 25.6-21.504 65.536 0 90.112 24.576 25.6 62.464 25.6 86.016 0l64.512-70.656c44.032-45.056 113.664-45.056 157.696 0l8.192 8.192 12.288-11.264c11.264-14.336 27.648-20.48 44.032-20.48 15.36 0 31.744 6.144 44.032 20.48l65.536 69.632c24.576-8.192 48.128-12.288 71.68-12.288 62.464 0 120.832 24.576 166.912 71.68l115.712 122.88 19.456-22.528c6.144-4.096 12.288-8.192 18.432-8.192 8.192 0 14.336 4.096 18.432 8.192 11.264 12.288 11.264 27.648 0 39.936l-83.968 90.112 139.264 148.48c10.24 11.264 10.24 27.648 0 39.936-10.24 9.216-25.6 9.216-35.84 0l-140.288-150.528-132.096 140.288 140.288 149.504c12.288 10.24 12.288 26.624 0 38.912-8.192 9.216-25.6 9.216-35.84 0l-140.288-150.528-83.968 90.112c-9.216 12.288-25.6 12.288-35.84 0-10.24-10.24-10.24-27.648 0-37.888l20.48-22.528-114.688-121.856c-65.536-69.632-83.968-167.936-57.344-256zM493.568 244.48c-71.68 75.776-71.68 199.68 0 275.456l114.688 123.904 260.096-275.456-116.736-123.904c-71.68-76.8-187.392-76.8-258.048 0zM423.936 251.648c8.192-15.36 20.48-31.744 33.792-46.080 12.288-13.312 26.624-25.6 41.984-35.84l-51.2-55.296c-4.096-4.096-12.288-4.096-16.384 0l-62.464 65.536c-2.048 2.048-2.048 6.144-2.048 8.192s0 4.096 2.048 8.192z" />
<glyph unicode="&#x53;" glyph-name="sale" d="M360.448 336.128c15.36-18.432 37.888-25.6 61.44-25.6 22.528 0 44.032 7.168 60.416 25.6 15.36 16.384 25.6 39.936 25.6 63.488 0 24.576-10.24 46.080-25.6 62.464-16.384 18.432-37.888 27.648-60.416 27.648-23.552 0-46.080-9.216-61.44-27.648-34.816-33.792-34.816-92.16 0-125.952zM384 438.528c10.24 9.216 22.528 15.36 37.888 15.36 12.288 0 26.624-6.144 35.84-15.36 10.24-10.24 16.384-24.576 16.384-38.912 0-15.36-6.144-29.696-16.384-39.936-19.456-19.456-53.248-19.456-73.728 0-19.456 22.528-19.456 56.32 0 78.848zM369.664 178.432c-33.792-34.816-33.792-90.112 0-125.952 16.384-18.432 37.888-26.624 60.416-26.624 21.504 0 44.032 8.192 62.464 26.624 33.792 35.84 33.792 91.136 0 125.952-34.816 35.84-88.064 35.84-122.88 0zM467.968 76.032c-19.456-20.48-54.272-20.48-73.728 0-22.528 22.528-22.528 56.32 0 77.824 19.456 22.528 54.272 22.528 73.728 0 20.48-21.504 20.48-55.296 0-77.824zM566.272 352.512l-295.936-158.72c-8.192-4.096-12.288-13.312-8.192-23.552 4.096-6.144 10.24-8.192 16.384-8.192 1.024 0 3.072 0 7.168 0l295.936 157.696c8.192 4.096 10.24 16.384 6.144 24.576s-13.312 11.264-21.504 8.192zM994.304 749.824c0 64.512-50.176 114.688-110.592 114.688h-117.76c-59.392 0-107.52-50.176-107.52-114.688v-77.824l-158.72 16.384c-21.504 2.048-39.936-6.144-55.296-20.48l-400.384-415.744c-18.432-20.48-18.432-52.224 0-71.68l314.368-326.656c9.216-8.192 21.504-14.336 35.84-14.336 12.288 0 23.552 6.144 33.792 14.336l400.384 415.744c13.312 14.336 21.504 36.864 17.408 56.32l-17.408 205.824 134.144 138.24c19.456 22.528 31.744 50.176 31.744 79.872zM803.84 294.144l-399.36-413.696c-2.048-4.096-6.144-4.096-10.24-4.096s-8.192 0-12.288 4.096l-314.368 325.632c-5.12 6.144-5.12 16.384 0 21.504l400.384 414.72c6.144 8.192 16.384 10.24 24.576 10.24h3.072l162.816-16.384v-52.224c-14.336-4.096-26.624-12.288-36.864-21.504-13.312-14.336-21.504-34.816-21.504-54.272 0-20.48 8.192-39.936 21.504-54.272 14.336-14.336 32.768-21.504 52.224-21.504 20.48 0 37.888 7.168 52.224 21.504s22.528 33.792 22.528 54.272c0 19.456-8.192 39.936-22.528 54.272-10.24 9.216-21.504 17.408-33.792 21.504v48.128l65.536-6.144c16.384-2.048 28.672-14.336 30.72-31.744l25.6-270.336c0-12.288-4.096-21.504-10.24-29.696zM660.48 548.096c7.168-25.6 25.6-48.128 51.2-54.272-2.048-6.144-5.12-10.24-7.168-15.36-8.192-6.144-18.432-12.288-30.72-12.288-10.24 0-19.456 6.144-27.648 12.288-8.192 7.168-12.288 19.456-12.288 29.696 0 12.288 4.096 21.504 12.288 29.696 4.096 4.096 10.24 8.192 14.336 10.24zM937.984 695.552l-113.664-117.76-2.048 20.48c-4.096 31.744-30.72 59.392-62.464 61.44l-67.584 8.192v81.92c0 44.032 33.792 79.872 73.728 79.872h117.76c41.984 0 76.8-35.84 76.8-79.872 0-19.456-8.192-39.936-22.528-54.272z" />
<glyph unicode="&#x5c;" glyph-name="arrowconvertito" d="M532.48 100.224l483.328 493.568c12.288 10.24 12.288 30.72 0 39.936-11.264 12.288-29.696 12.288-41.984 0l-461.824-470.016-461.824 470.016c-12.288 12.288-29.696 12.288-41.984 0-4.096-4.096-8.192-11.264-8.192-19.456s4.096-14.336 8.192-20.48l484.352-493.568c9.216-10.24 29.696-10.24 39.936 0z" />
<glyph unicode="&#x61;" glyph-name="allproducts" d="M384 480.512h256v-256h-256zM0 864.512h256v-256h-256zM384 96.512h256v-257.024h-256zM0 480.512h256v-256h-256zM0 96.512h256v-257.024h-256zM768 864.512h256v-256h-256zM384 864.512h256v-256h-256zM768 480.512h256v-256h-256zM768 96.512h256v-257.024h-256z" />
<glyph unicode="&#x62;" glyph-name="check" d="M937.984 434.432c-23.552 0-41.984-18.432-41.984-39.936v-41.984c0-108.544-41.984-211.968-117.76-288.768-77.824-75.776-180.224-117.76-287.744-117.76 0 0 0 0 0 0-224.256 0-408.576 182.272-408.576 406.528 0 107.52 44.032 211.968 119.808 287.744 76.8 75.776 180.224 117.76 288.768 117.76 0 0 0 0 0 0 57.344 0 111.616-12.288 165.888-33.792 19.456-10.24 44.032 0 53.248 19.456 10.24 22.528 0 46.080-21.504 56.32-62.464 27.648-130.048 41.984-197.632 41.984 0 0 0 0 0 0-132.096 0-253.952-52.224-346.112-144.384-92.16-91.136-144.384-214.016-144.384-345.088 0-130.048 50.176-253.952 144.384-346.112 92.16-92.16 214.016-144.384 346.112-144.384 0 0 0 0 0 0 130.048 0 253.952 52.224 345.088 144.384 92.16 92.16 144.384 214.016 144.384 346.112v41.984c0 21.504-19.456 39.936-41.984 39.936zM1011.712 783.616c-15.36 16.384-41.984 16.384-57.344 0l-463.872-463.872-106.496 106.496c-16.384 15.36-41.984 15.36-58.368 0-15.36-16.384-15.36-41.984 0-58.368l134.144-136.192c8.192-7.168 20.48-11.264 30.72-11.264 9.216 0 19.456 4.096 27.648 11.264l493.568 494.592c16.384 15.36 16.384 41.984 0 57.344z" />
<glyph unicode="&#x63;" glyph-name="cart-convertito" d="M312.32 189.696h551.936c61.44 0 113.664 52.224 113.664 116.736v285.696h-2.048v6.144h-2.048v4.096h-2.048v2.048h-2.048l-2.048 4.096-2.048 2.048h-2.048l-1.024 1.024h-2.048l-2.048 2.048h-4.096l-700.416 56.32v108.544h-2.048v3.072l-2.048 2.048v2.048h-2.048v2.048l-6.144 6.144h-2.048v2.048h-3.072l-150.528 66.56c-14.336 5.12-31.744-2.048-37.888-16.384s2.048-29.696 16.384-35.84l133.12-58.368v-623.616c0-58.368 44.032-108.544 100.352-114.688-10.24-17.408-16.384-37.888-16.384-59.392 0-62.464 50.176-114.688 112.64-114.688 61.44 0 111.616 52.224 111.616 114.688 0 21.504-6.144 41.984-15.36 58.368h249.856c-10.24-16.384-16.384-36.864-16.384-58.368 0-62.464 52.224-114.688 111.616-114.688 62.464 0 112.64 52.224 112.64 114.688 0 63.488-50.176 115.712-112.64 115.712h-523.264c-32.768 0-58.368 26.624-58.368 58.368v77.824c16.384-10.24 35.84-16.384 58.368-16.384zM450.56-45.824c0-31.744-26.624-58.368-56.32-58.368-31.744 0-58.368 26.624-58.368 58.368s26.624 58.368 58.368 58.368c29.696 0 56.32-26.624 56.32-58.368zM893.952-45.824c0-31.744-25.6-58.368-56.32-58.368-31.744 0-57.344 26.624-57.344 58.368s25.6 58.368 57.344 58.368c30.72 0 56.32-26.624 56.32-58.368zM864.256 246.016h-551.936c-32.768 0-58.368 27.648-58.368 60.416v305.152l667.648-49.152v-256c0-32.768-25.6-60.416-57.344-60.416z" />
<glyph unicode="&#x64;" glyph-name="delivery-truck-1" d="M837.632 205.696c-25.6 0-49.152-9.216-67.584-25.6-18.432-18.432-27.648-41.984-27.648-67.584 0-24.576 9.216-48.128 27.648-66.56 18.432-17.408 41.984-27.648 67.584-27.648 50.176 0 92.16 44.032 92.16 94.208 0 51.2-41.984 93.184-92.16 93.184zM837.632 60.288c-29.696 0-53.248 23.552-53.248 52.224 0 29.696 23.552 51.2 53.248 51.2 28.672 0 50.176-21.504 50.176-51.2 0-28.672-21.504-52.224-50.176-52.224zM862.208 520.064c-4.096 2.048-10.24 4.096-14.336 4.096h-107.52c-12.288 0-20.48-8.192-20.48-20.48v-172.032c0-9.216 8.192-19.456 20.48-19.456h169.984c11.264 0 21.504 10.24 21.504 19.456v116.736c0 6.144-4.096 9.216-8.192 13.312zM889.856 354.176h-128v130.048h77.824l50.176-46.080zM327.68 205.696c-25.6 0-48.128-9.216-65.536-25.6-18.432-18.432-27.648-41.984-27.648-67.584 0-24.576 9.216-48.128 27.648-66.56 17.408-17.408 39.936-27.648 65.536-27.648 52.224 0 92.16 44.032 92.16 94.208 0 51.2-39.936 93.184-92.16 93.184zM327.68 60.288c-27.648 0-51.2 23.552-51.2 52.224 0 29.696 23.552 51.2 51.2 51.2 28.672 0 52.224-21.504 52.224-51.2 0-28.672-23.552-52.224-52.224-52.224zM188.416 180.096h-39.936v56.32c0 11.264-10.24 21.504-22.528 21.504s-19.456-10.24-19.456-21.504v-76.8c0-11.264 7.168-19.456 19.456-19.456h62.464c11.264 0 21.504 8.192 21.504 19.456 0 12.288-10.24 20.48-21.504 20.48zM293.888 293.76c0 12.288-8.192 22.528-19.456 22.528h-253.952c-10.24 0-20.48-10.24-20.48-22.528 0-9.216 10.24-19.456 20.48-19.456h253.952c11.264 0 19.456 8.192 19.456 19.456zM64.512 370.56l251.904-2.048c11.264 0 19.456 9.216 21.504 21.504 0 10.24-10.24 20.48-21.504 20.48l-251.904 2.048c0 0 0 0 0 0-12.288 0-22.528-10.24-22.528-22.528 0-10.24 10.24-19.456 22.528-19.456zM106.496 463.744h251.904c11.264 0 21.504 10.24 21.504 22.528 0 10.24-10.24 19.456-21.504 19.456h-251.904c-12.288 0-22.528-9.216-22.528-19.456 0-12.288 10.24-22.528 22.528-22.528zM1015.808 492.416l-149.504 123.904c-2.048 4.096-8.192 6.144-12.288 6.144h-176.128v73.728c0 12.288-10.24 21.504-19.456 21.504h-532.48c-12.288 0-19.456-9.216-19.456-21.504v-152.576c0-11.264 7.168-21.504 19.456-21.504s22.528 10.24 22.528 21.504v132.096h487.424v-495.616h-169.984c-12.288 0-21.504-8.192-21.504-20.48 0-11.264 9.216-19.456 21.504-19.456h253.952c12.288 0 22.528 8.192 22.528 19.456 0 12.288-10.24 20.48-22.528 20.48h-41.984v400.384h167.936l136.192-114.688-2.048-283.648h-19.456c-12.288 0-22.528-10.24-22.528-22.528 0-9.216 10.24-19.456 22.528-19.456h41.984c9.216 0 19.456 8.192 19.456 19.456l2.048 316.416c0 6.144-2.048 12.288-8.192 16.384z" />
<glyph unicode="&#x65;" glyph-name="logout" d="M0 643.584v-519.168c0-70.656 58.368-128 130.048-128h417.792c72.704 0 130.048 57.344 130.048 128v83.968c0 13.312-12.288 25.6-25.6 25.6-14.336 0-26.624-12.288-26.624-25.6v-83.968c0-41.984-33.792-78.848-77.824-78.848h-417.792c-44.032 0-77.824 36.864-77.824 78.848v519.168c0 41.984 33.792 78.848 77.824 78.848h417.792c44.032 0 79.872-36.864 79.872-78.848v-83.968c0-13.312 10.24-25.6 24.576-25.6 15.36 0 25.6 12.288 25.6 25.6v83.968c0 70.656-57.344 128-130.048 128h-417.792c-71.68 0-130.048-57.344-130.048-128zM803.84 189.952c6.144-4.096 12.288-6.144 20.48-6.144 6.144 0 11.264 2.048 17.408 6.144l174.080 176.128c10.24 10.24 10.24 25.6 0 35.84l-174.080 176.128c-9.216 10.24-25.6 10.24-35.84 0s-10.24-25.6 0-35.84l130.048-132.096h-480.256c-13.312 0-25.6-12.288-25.6-25.6 0-14.336 12.288-26.624 25.6-26.624h480.256l-132.096-132.096c-10.24-10.24-10.24-25.6 0-35.84z" />
<glyph unicode="&#x66;" glyph-name="filter" d="M180.224 608.512c57.344 0 105.472 47.104 115.712 109.568h648.192c8.192 0 16.384 8.192 16.384 18.432 0 9.216-8.192 17.408-16.384 17.408h-648.192c-10.24 62.464-58.368 110.592-115.712 110.592-64.512 0-115.712-58.368-115.712-128 0-70.656 51.2-128 115.712-128zM180.224 827.648c46.080 0 83.968-41.984 83.968-91.136 0-50.176-37.888-92.16-83.968-92.16s-81.92 41.984-81.92 92.16c0 49.152 35.84 91.136 81.92 91.136zM843.776 96.512c-57.344 0-105.472-48.128-115.712-110.592h-648.192c-8.192 0-15.36-8.192-15.36-17.408 0-10.24 7.168-18.432 15.36-18.432h648.192c10.24-62.464 58.368-110.592 115.712-110.592 64.512 0 116.736 58.368 116.736 129.024 0 69.632-52.224 128-116.736 128zM843.776-123.648c-46.080 0-83.968 41.984-83.968 92.16 0 49.152 37.888 91.136 83.968 91.136s81.92-41.984 81.92-91.136c0-50.176-35.84-92.16-81.92-92.16zM944.128 369.92h-310.272c-6.144 66.56-57.344 117.76-117.76 117.76-62.464 0-111.616-51.2-119.808-117.76h-316.416c-8.192 0-15.36-8.192-15.36-17.408 0-10.24 7.168-18.432 15.36-18.432h318.464c9.216-62.464 57.344-109.568 117.76-109.568 58.368 0 107.52 47.104 115.712 109.568h312.32c8.192 0 16.384 8.192 16.384 18.432 0 9.216-8.192 17.408-16.384 17.408zM516.096 260.352c-48.128 0-88.064 44.032-88.064 95.232 0 52.224 39.936 96.256 88.064 96.256s86.016-44.032 86.016-96.256c0-51.2-37.888-95.232-86.016-95.232z" />
<glyph unicode="&#x67;" glyph-name="markerconvertito" d="M512 864.512c-197.632 0-358.4-166.912-358.4-370.688 0-253.952 320.512-627.712 334.848-642.048 11.264-15.36 35.84-15.36 47.104 0 14.336 14.336 334.848 388.096 334.848 642.048 0 203.776-160.768 370.688-358.4 370.688zM512 306.432c-100.352 0-180.224 83.968-180.224 187.392 0 102.4 79.872 186.368 180.224 186.368s180.224-83.968 180.224-186.368c0-103.424-79.872-187.392-180.224-187.392z" />
<glyph unicode="&#x68;" glyph-name="qa-freccia" d="M959.488 75.52v0l-1.024 3.072c-2.048 3.072-3.072 6.144-6.144 8.192l-130.048 131.072c-10.24 8.192-24.576 8.192-34.816 0-10.24-10.24-10.24-25.6 0-35.84l87.040-87.040h-542.72c-130.048 0-236.544 104.448-236.544 236.544v459.776h-50.176v-458.752c0-1.024 0-1.024 0-2.048v-5.12c3.072-109.568 67.584-207.872 166.912-252.928 36.864-17.408 77.824-26.624 118.784-26.624h542.72l-89.088-89.088c-10.24-10.24-10.24-24.576 0-34.816s24.576-10.24 34.816 0l129.024 129.024c3.072 3.072 5.12 5.12 7.168 10.24 0 1.024 1.024 3.072 1.024 4.096l2.048 6.144c1.024 1.024 1.024 3.072 1.024 4.096z" />
<glyph unicode="&#x69;" glyph-name="blog" d="M509.146 863.958c-196.090 1.954-399.522-105.831-477.982-291.207-58.783-134.341-31.671-299.693 64.651-409.722-31.599-74.075-64.387-147.692-95.244-222.053-6.078-38.961 40.529-44.006 64.762-25.982 80.701 33.47 161.402 66.941 242.103 100.411 76.014-26.899 158.828-41.624 238.948-32.687 40.812 21.774 4.505 71.372-32.462 59.579-70.99-2.431-140.608 15.651-206.85 38.622-49.067-14.604-95.49-38.673-143.484-57.108-24.145-10.050-48.291-20.099-72.436-30.149 23.861 57.508 50.974 113.897 72.754 172.121-14.138 47.143-62.871 80.463-75.887 131.138-53.58 126.545-14.73 279.973 84.53 372.881 189.139 187.671 538.746 173.876 705.781-36.432 82.229-99.53 101.427-247.848 38.901-362.198-19.153-60.362 74.945-51.95 70.925 4.362 61.877 143.238 21.609 317.256-86.848 426.91-100.417 106.156-247.194 161.963-392.161 161.513zM656.639 432.529c0.011-52.923 87.613-27.091 57.612 17.32-15.856 24.996-58.67 12.738-57.612-17.32zM538.295 432.529c0-17.065-14.094-30.898-31.481-30.898s-31.481 13.834-31.481 30.898c0 17.065 14.094 30.898 31.481 30.898s31.481-13.834 31.481-30.898zM293.444 432.529c0.011-52.923 87.613-27.091 57.612 17.32-15.856 24.996-58.67 12.738-57.612-17.32zM991.269 28.565c-76.25 73.61-150.929 149.032-228.163 221.507-55.98 18.259-113.865 31.236-170.594 47.42-40.507 9.306-46.030-37.757-30.764-63.808 14.766-45.923 27.583-92.567 43.589-138.030 77.165-78.102 156.411-154.472 235.291-230.934 60.449-52.863 168.412-15.981 181.138 64.123 7.407 35.656-4.122 74.454-30.497 99.721zM818.124-25.793c-52.857 52.069-105.713 104.138-158.57 156.207-9.522 30.707-19.044 61.415-28.566 92.122 34.251-10.648 70.458-17.914 103.509-30.634 51-49.868 102.001-99.736 153.001-149.605-23.125-22.697-46.25-45.393-69.374-68.090zM965.035-52.113c-6.305-49.38-75.529-60.327-101.015-19.298 16.226 20.695 41.175 41.408 60.75 62.11 12.363 20.432 44.504-28.14 40.265-42.812z" />
<glyph unicode="&#x6c;" glyph-name="lamp-convertito" d="M761.856 749.824c-63.488 72.704-153.6 114.688-249.856 114.688s-186.368-41.984-249.856-114.688c-54.272-59.392-81.92-138.24-81.92-220.16s27.648-159.744 81.92-221.184c10.24-8.192 17.408-18.432 27.648-26.624 35.84-31.744 50.176-61.44 50.176-101.376v-38.912c0-21.504 16.384-37.888 37.888-37.888v0c20.48 0 37.888 16.384 37.888 36.864v39.936c0 61.44-23.552 111.616-75.776 157.696-6.144 6.144-14.336 14.336-21.504 21.504-86.016 96.256-86.016 242.688 0 339.968 49.152 56.32 119.808 88.064 193.536 88.064s144.384-31.744 194.56-88.064c84.992-95.232 84.992-243.712 0-339.968-8.192-7.168-14.336-15.36-22.528-21.504-50.176-46.080-73.728-96.256-73.728-155.648l-2.048-40.96c0-21.504 17.408-37.888 37.888-39.936v0c21.504 0 37.888 18.432 37.888 38.912v41.984c2.048 39.936 14.336 67.584 50.176 99.328 10.24 8.192 19.456 18.432 27.648 28.672 54.272 59.392 81.92 137.216 81.92 219.136s-27.648 160.768-81.92 220.16zM646.144 40.192h-268.288c-21.504 0-37.888-16.384-37.888-37.888 0-20.48 16.384-37.888 37.888-37.888h268.288c21.504 0 37.888 17.408 37.888 37.888 0 21.504-16.384 37.888-37.888 37.888zM583.68-83.712h-143.36c-22.528 0-37.888-18.432-37.888-37.888 0-22.528 15.36-38.912 37.888-38.912h143.36c22.528 0 37.888 16.384 37.888 38.912 0 19.456-15.36 37.888-37.888 37.888zM537.6 422.144l-103.424 103.424c-14.336 14.336-37.888 14.336-52.224 0-16.384-13.312-16.384-37.888 0-53.248l92.16-92.16v-238.592c0-21.504 18.432-37.888 37.888-37.888 20.48 0 37.888 16.384 37.888 37.888v250.88c0 13.312-6.144 23.552-12.288 29.696zM644.096 525.568c-16.384 14.336-39.936 14.336-54.272 0l-19.456-19.456c-14.336-14.336-14.336-37.888 0-54.272 8.192-6.144 15.36-10.24 25.6-10.24s20.48 4.096 27.648 10.24l20.48 20.48c14.336 15.36 14.336 39.936 0 53.248z" />
<glyph unicode="&#x6d;" glyph-name="show-menu-convertito" d="M0 818.432h1024v-94.208h-1024zM0-20.224h1024v-94.208h-1024zM0 397.568h837.632v-91.136h-837.632z" />
<glyph unicode="&#x6e;" glyph-name="user-qa" d="M159.744-136.448h431.104c9.216 0 16.384 7.168 16.384 16.384v175.104c0 77.824-61.44 139.264-139.264 140.288 64.512 51.2 74.752 146.432 22.528 208.896s-146.432 74.752-209.92 22.528-74.752-146.432-21.504-208.896c7.168-9.216 14.336-16.384 21.504-22.528-76.8-1.024-138.24-64.512-138.24-140.288v-174.080c1.024-9.216 8.192-17.408 17.408-17.408v0zM259.072 311.040c0 64.512 52.224 115.712 115.712 115.712s115.712-53.248 115.712-115.712-53.248-115.712-115.712-115.712c-63.488 0-115.712 53.248-115.712 115.712zM177.152 55.040c0 60.416 48.128 108.544 108.544 108.544h182.272c60.416 0 108.544-48.128 108.544-108.544v-157.696h-65.536v115.712c0 8.192-8.192 15.36-16.384 15.36-9.216 0-16.384-7.168-16.384-15.36v-115.712h-201.728v115.712c0 8.192-7.168 15.36-16.384 15.36-8.192 0-15.36-7.168-15.36-15.36v-115.712h-66.56v157.696zM656.384 382.72v-55.296c0-9.216 8.192-16.384 16.384-16.384 2.048 0 4.096 0 6.144 1.024l33.792 13.312c113.664 47.104 188.416 156.672 191.488 279.552 0 3.072 0 6.144 0 7.168 0 128-104.448 231.424-231.424 231.424s-231.424-103.424-231.424-231.424c0-120.832 94.208-220.16 215.040-229.376v0zM672.768 811.776c109.568 0 197.632-90.112 197.632-197.632 0-3.072 0-5.12 0-7.168-3.072-110.592-70.656-207.872-171.008-250.88l-10.24-4.096v47.104c0 8.192-7.168 15.36-16.384 15.36-109.568 0-197.632 90.112-197.632 197.632 0 109.568 88.064 199.68 197.632 199.68 0 0 0 0 0 0z" />
<glyph unicode="&#x70;" glyph-name="phone-convertito" d="M782.336 229.632c-18.432 22.528-41.984 34.816-66.56 34.816-23.552 0-48.128-12.288-67.584-34.816l-62.464-67.584-13.312 8.192c-8.192 4.096-14.336 8.192-20.48 12.288-58.368 39.936-111.616 93.184-161.792 161.792-24.576 33.792-39.936 61.44-54.272 92.16 18.432 15.36 31.744 31.744 46.080 49.152l16.384 18.432c41.984 44.032 41.984 104.448 0 149.504l-52.224 58.368-18.432 20.48c-11.264 13.312-23.552 27.648-37.888 39.936-19.456 21.504-41.984 31.744-65.536 31.744-24.576 0-48.128-10.24-66.56-31.744h-2.048l-65.536-74.752c-25.6-27.648-39.936-61.44-41.984-99.328-6.144-64.512 12.288-121.856 23.552-159.744 32.768-94.208 79.872-182.272 150.528-276.48 88.064-113.664 189.44-201.728 310.272-266.24 44.032-21.504 105.472-50.176 172.032-56.32h11.264c46.080 0 83.968 18.432 114.688 54.272h2.048c9.216 14.336 21.504 26.624 33.792 39.936 8.192 8.192 15.36 18.432 25.6 28.672 18.432 21.504 29.696 48.128 29.696 73.728s-11.264 54.272-31.744 73.728zM854.016 2.304c-8.192-10.24-16.384-18.432-25.6-26.624-12.288-13.312-24.576-27.648-36.864-44.032-19.456-23.552-43.008-33.792-73.728-33.792h-10.24c-57.344 4.096-111.616 29.696-153.6 50.176-109.568 60.416-207.872 144.384-289.792 249.856-68.608 90.112-112.64 172.032-142.336 260.096-17.408 54.272-23.552 96.256-21.504 136.192 2.048 23.552 11.264 46.080 27.648 63.488l66.56 72.704c9.216 9.216 19.456 15.36 29.696 15.36 12.288 0 23.552-7.168 29.696-13.312v-2.048c12.288-12.288 24.576-24.576 35.84-37.888l18.432-22.528 54.272-58.368c19.456-23.552 19.456-44.032 0-67.584l-18.432-18.432c-16.384-17.408-31.744-35.84-48.128-51.2l-2.048-2.048c-15.36-18.432-14.336-35.84-10.24-48.128v-2.048c14.336-37.888 34.816-71.68 64.512-113.664 54.272-74.752 111.616-132.096 176.128-176.128 8.192-4.096 15.36-10.24 23.552-14.336 6.144-4.096 14.336-8.192 18.432-12.288h4.096c6.144-4.096 11.264-6.144 17.408-6.144 18.432 0 28.672 10.24 30.72 14.336l67.584 73.728c6.144 8.192 18.432 16.384 29.696 16.384 12.288 0 22.528-8.192 28.672-14.336v-2.048l107.52-117.76c22.528-21.504 22.528-46.080 2.048-67.584zM549.888 619.776c52.224-9.216 98.304-35.84 136.192-77.824 35.84-39.936 62.464-92.16 69.632-147.456 2.048-14.336 14.336-24.576 26.624-24.576h4.096c15.36 2.048 23.552 18.432 21.504 33.792-10.24 68.608-39.936 130.048-83.968 180.224-46.080 50.176-102.4 81.92-163.84 94.208-16.384 2.048-29.696-8.192-31.744-24.576-2.048-15.36 7.168-31.744 21.504-33.792zM975.872 411.904c-15.36 113.664-65.536 216.064-140.288 297.984-73.728 79.872-167.936 134.144-269.312 154.624-14.336 2.048-28.672-8.192-30.72-24.576-1.024-16.384 6.144-31.744 22.528-33.792 92.16-16.384 174.080-64.512 241.664-138.24 66.56-71.68 110.592-163.84 123.904-266.24 2.048-13.312 14.336-23.552 26.624-23.552l6.144 2.048c13.312 2.048 23.552 16.384 19.456 31.744z" />
<glyph unicode="&#x71;" glyph-name="qa-icon" d="M951.296 25.344l1.024 2.048c27.648 47.104 41.984 102.4 41.984 157.696 0 139.264-93.184 262.144-226.304 299.008l-3.072 1.024v4.096c-8.192 197.632-169.984 351.232-366.592 351.232-203.776 0-368.64-164.864-368.64-368.64 0-65.536 17.408-130.048 51.2-187.392l1.024-1.024-48.128-176.128 175.104 49.152 2.048-2.048c51.2-30.72 110.592-48.128 171.008-51.2h4.096l2.048-3.072c35.84-133.12 158.72-226.304 297.984-226.304 55.296 0 109.568 14.336 157.696 41.984l2.048 2.048 146.432-40.96-40.96 148.48zM224.256 202.496l-9.216 6.144-113.664-31.744 30.72 114.688-6.144 9.216c-32.768 51.2-50.176 111.616-50.176 171.008 0 177.152 143.36 320.512 320.512 320.512s320.512-143.36 320.512-320.512-143.36-320.512-320.512-320.512c-61.44 0-119.808 17.408-172.032 51.2zM922.624-54.528l-87.040 23.552-9.216-6.144c-41.984-27.648-92.16-41.984-143.36-41.984-112.64 0-212.992 71.68-249.856 179.2l-2.048 6.144h6.144c167.936 19.456 303.104 154.624 323.584 323.584v5.12l6.144-1.024c106.496-36.864 179.2-136.192 179.2-249.856 0-51.2-14.336-101.376-41.984-143.36l-6.144-9.216 24.576-86.016zM505.856 559.872c0 59.392-49.152 109.568-109.568 109.568-58.368 0-106.496-47.104-109.568-103.424h47.104c3.072 31.744 28.672 56.32 61.44 56.32 33.792 0 62.464-27.648 62.464-62.464 0-17.408-7.168-33.792-20.48-45.056l-65.536-60.416v-62.464h47.104v41.984l49.152 45.056c24.576 20.48 37.888 50.176 37.888 80.896z" />
<glyph unicode="&#x72;" glyph-name="review-icon" d="M512 783.104c-235.52 0-427.008-191.488-427.008-424.96 0-105.472 37.888-206.848 109.568-285.696 0-1.024 0-1.024-1.024-3.072-3.072-7.168-9.216-15.36-16.384-27.648-16.384-21.504-37.888-48.128-61.44-68.608-6.144-6.144-7.168-13.312-4.096-20.48 2.048-7.168 8.192-11.264 15.36-13.312 63.488-4.096 111.616 3.072 149.504 23.552 6.144 3.072 11.264 6.144 17.408 10.24 2.048 1.024 6.144 4.096 9.216 6.144l3.072 1.024c1.024 0 1.024 2.048 1.024 2.048 62.464-35.84 133.12-53.248 204.8-53.248 235.52 0 427.008 191.488 427.008 427.008s-191.488 427.008-427.008 427.008zM901.12 358.144c0-215.040-174.080-389.12-389.12-389.12-67.584 0-133.12 17.408-191.488 49.152-2.048 2.048-3.072 2.048-6.144 3.072-3.072 2.048-6.144 2.048-8.192 2.048-8.192 0-15.36-3.072-23.552-9.216l-3.072-3.072c-3.072-1.024-6.144-4.096-7.168-6.144-5.12-2.048-9.216-5.12-13.312-8.192-23.552-12.288-51.2-19.456-86.016-20.48 40.96 44.032 72.704 93.184 51.2 116.736-66.56 71.68-102.4 165.888-102.4 263.168 1.024 215.040 175.104 391.168 390.144 391.168s389.12-176.128 389.12-389.12zM700.416 444.16l-110.592 3.072c-3.072 0-6.144 1.024-7.168 6.144l-36.864 104.448c-4.096 13.312-16.384 20.48-29.696 20.48s-24.576-8.192-28.672-20.48l-36.864-104.448c-1.024-3.072-4.096-5.12-7.168-6.144l-111.616-3.072c-13.312 0-24.576-9.216-28.672-21.504-5.12-13.312 0-26.624 10.24-35.84l87.040-66.56c3.072-2.048 3.072-6.144 3.072-9.216l-30.72-105.472c-4.096-13.312 0-26.624 12.288-34.816 10.24-7.168 24.576-9.216 35.84 0l91.136 64.512c3.072 1.024 6.144 1.024 9.216 0l90.112-63.488c6.144-4.096 12.288-5.12 17.408-5.12 6.144 0 13.312 1.024 19.456 5.12 10.24 7.168 16.384 22.528 11.264 35.84l-31.744 106.496c-2.048 3.072 0 6.144 3.072 8.192l87.040 67.584c10.24 9.216 15.36 22.528 10.24 34.816-2.048 10.24-14.336 18.432-27.648 19.456zM443.392 311.040c4.096 13.312 0 26.624-12.288 33.792l-63.488 49.152c-3.072 3.072-3.072 6.144-3.072 9.216 1.024 3.072 3.072 6.144 7.168 6.144l79.872 1.024c13.312 0 25.6 9.216 29.696 20.48l26.624 75.776c1.024 5.12 4.096 6.144 7.168 6.144v0c3.072 0 6.144-1.024 7.168-6.144l26.624-75.776c4.096-11.264 15.36-20.48 28.672-20.48l80.896-1.024c4.096 0 6.144-3.072 7.168-6.144s0-6.144-3.072-9.216l-62.464-49.152c-10.24-7.168-15.36-22.528-12.288-33.792l23.552-77.824c2.048-4.096 0-7.168-3.072-8.192-1.024-2.048-5.12-3.072-8.192 0l-67.584 46.080c-6.144 5.12-11.264 6.144-17.408 6.144s-13.312-1.024-17.408-6.144l-67.584-46.080c-3.072-3.072-7.168-2.048-9.216 0-1.024 1.024-4.096 4.096-2.048 8.192l24.576 77.824z" />
<glyph unicode="&#x73;" glyph-name="search-convertito" d="M83.968 428.288c0 205.824 159.744 373.76 356.352 373.76 195.584 0 357.376-167.936 357.376-373.76 0-207.872-161.792-375.808-357.376-375.808-196.608 0-356.352 167.936-356.352 375.808zM990.208-108.288l-236.544 249.856c64.512 76.8 102.4 176.128 102.4 286.72 0 239.616-186.368 436.224-415.744 436.224-228.352 0-414.72-196.608-414.72-436.224 0-242.688 186.368-438.272 414.72-438.272 103.424 0 199.68 39.936 271.36 108.544l238.592-248.832c4.096-6.144 12.288-10.24 19.456-10.24 6.144 0 14.336 4.096 20.48 10.24 12.288 10.24 12.288 30.72 0 41.984z" />
<glyph unicode="&#x74;" glyph-name="tick" d="M1009.664 777.984c-19.456 20.48-53.248 20.48-73.728 0l-612.352-614.4-235.52 236.544c-20.48 19.456-54.272 19.456-73.728 0-20.48-20.48-20.48-54.272 0-73.728l271.36-272.384c20.48-19.456 54.272-18.432 74.752 0l649.216 650.24c20.48 19.456 20.48 54.272 0 73.728z" />
<glyph unicode="&#x75;" glyph-name="user-convertito" d="M507.904 246.4h8.192c65.536 2.048 119.808 23.552 159.744 69.632 86.016 100.352 72.704 274.432 70.656 289.792-6.144 121.856-62.464 182.272-110.592 209.92-33.792 20.48-75.776 32.768-121.856 32.768h-4.096c-23.552 0-73.728-4.096-121.856-32.768-48.128-27.648-104.448-86.016-109.568-209.92-2.048-15.36-16.384-189.44 69.632-289.792 39.936-46.080 94.208-67.584 159.744-69.632zM337.92 599.68v2.048c8.192 165.888 123.904 184.32 172.032 184.32h4.096c60.416-2.048 163.84-27.648 172.032-184.32v-2.048c0-2.048 16.384-159.744-56.32-241.664-27.648-31.744-67.584-50.176-117.76-50.176h-2.048c-50.176 0-88.064 18.432-115.712 50.176-71.68 81.92-56.32 239.616-56.32 241.664zM977.92-38.272v4.096c-2.048 46.080-6.144 154.624-103.424 188.416h-2.048c-102.4 27.648-186.368 88.064-188.416 88.064-14.336 10.24-31.744 6.144-41.984-8.192s-6.144-31.744 8.192-41.984c2.048-4.096 94.208-67.584 205.824-98.304 52.224-17.408 58.368-75.776 60.416-128v-121.856h61.44c0 12.288 0 113.664 0 117.76zM108.544-156.032v121.856c1.024 52.224 7.168 110.592 59.392 128 111.616 30.72 203.776 94.208 205.824 98.304 14.336 10.24 18.432 29.696 8.192 41.984-8.192 14.336-27.648 18.432-41.984 8.192 0 0-86.016-60.416-188.416-88.064h-1.024c-98.304-33.792-102.4-142.336-104.448-186.368v-6.144c0-4.096 0-105.472 0-117.76z" />
<glyph unicode="&#x78;" glyph-name="close" d="M940.032 844.544c-14.336 13.312-35.84 13.312-50.176 0l-805.888-806.912c-14.336-13.312-14.336-35.84 0-50.176 6.144-7.168 16.384-9.216 24.576-9.216 9.216 0 17.408 2.048 25.6 9.216l805.888 806.912c14.336 13.312 14.336 35.84 0 50.176zM940.032 37.632l-805.888 806.912c-14.336 13.312-35.84 13.312-50.176 0-14.336-14.336-14.336-36.864 0-50.176l805.888-806.912c8.192-7.168 16.384-9.216 26.624-9.216 7.168 0 17.408 2.048 23.552 9.216 14.336 14.336 14.336 36.864 0 50.176z" />
</font>
</defs>
</svg>
